#TITLE:SABER WING;
#SUBTITLE:Dr-Shiro's simfiles;
#ARTIST:TAG;
#TITLETRANSLIT:;
#SUBTITLETRANSLIT:;
#ARTISTTRANSLIT:;
#CREDIT:;
#BANNER:banner.png;
#BACKGROUND:bg.png;
#LYRICSPATH:;
#CDTITLE:;
#MUSIC:SABER WING.mp3;
#OFFSET:0.000;
#SAMPLESTART:40.523;
#SAMPLELENGTH:12.000;
#SELECTABLE:YES;
#BPMS:0.000=148.000,96.500=296.000,96.833=70.000,97.000=296.000,97.500=70.000,97.667=148.000,154.500=74.000,162.500=148.000,177.750=35.000,178.667=148.020;
#STOPS:;
#BGCHANGES:;
// cache tags:
#FIRSTBEAT:0.667;
#LASTBEAT:242.750;
#SONGFILENAME:Songs/je/SABER WING/SABER WING.sm;
#HASMUSIC:1;
#HASBANNER:1;
#MUSICLENGTH:105.404;
// end cache tags

//---------------dance-single - ----------------
#NOTES:
     dance-single:
     :
     Hard:
     1:
     1.000,1.000,1.000,1.000,1.000,780.000,348.000,110.000,0.000,147.000:
0000
0000
0200
0000
0000
0010
0000
1302
0100
0010
1100
0013
,
1100
0011
1010
0100
0011
1100
1010
1100
0001
0100
1010
0100
,
0011
1100
0001
1010
0100
0101
0010
1001
0010
0001
1100
0001
,
1010
0101
0010
1001
0010
1100
0001
0120
1000
0001
0100
1000
,
0001
1230
0001
0010
1001
0010
0001
1310
0100
0001
1100
0001
,
0110
1001
0010
1100
0010
1001
0010
1100
0001
1000
0011
1000
,
0101
1010
0001
1100
0100
0011
0100
0011
1000
0001
0110
0100
,
1001
0000
0110
0000
1000
0000
0101
0000
1000
0000
0011
0000
0100
0000
1000
0100
0010
0001
1000
0100
0010
0001
1000
0100
,
0010
0001
1000
0100
0010
1000
0100
0010
1000
0100
0010
1000
0100
0010
0001
0000
2010
0000
0100
0000
0001
0000
0010
0000
,
3100
0021
0100
1031
0010
0201
1000
0312
1000
0123
1000
0231
,
0010
2301
0010
0100
0001
3210
0001
1320
0100
0031
0100
2010
,
0001
3210
1000
0301
0010
1200
0001
2310
0100
3012
1000
0213
,
1000
0321
0100
1000
0001
2130
0010
3201
0010
0301
1000
0102
,
1000
0123
1000
0031
0010
0201
1000
0321
1000
0132
0010
2103
,
0010
3201
0010
1000
0001
1320
0001
1230
0001
0310
0001
2100
,
0010
3201
0010
1300
0001
1200
0001
1320
0100
1032
0010
1203
,
0010
1311
0000
0000
0000
0000
0000
1001
0010
1001
0100
0010
,
0101
1010
0100
0011
0100
1010
0011
1100
0010
0100
0011
1000
,
0101
1010
0100
1010
0100
0011
1000
0101
0010
0100
1001
0100
,
1100
0011
0100
1001
0010
0101
0010
2100
0001
0100
0010
0001
,
0100
3021
0100
1000
0001
1100
0001
1131
0010
0100
0101
1000
,
0110
1001
0100
0011
1000
0110
0001
1100
0001
0010
0101
0010
,
1001
0110
1000
0011
0100
1010
0001
1100
0010
0100
1001
0010
,
1010
0000
0101
0000
0010
0000
1100
0000
0010
0000
1001
0000
0010
0000
0100
0010
1000
0001
0100
0010
1000
0001
0100
0010
,
0001
1000
0010
0101
0000
0000
0101
0000
0000
0000
1001
0000
0000
0000
1111
0000
1001
0000
0110
0000
1001
0000
1010
0000
,
1001
0110
1001
1100
0011
1100
0011
1100
0110
0011
1100
0110
,
0011
1100
0011
1100
0011
1001
0110
0011
1001
0110
1001
0110
,
1001
0110
1001
0011
0110
1100
0011
0110
1100
0110
0011
0111
,
1100
0110
0011
1100
0110
0011
1100
0110
0011
1100
0011
0110
,
1100
0011
0110
1100
0011
0110
1100
0011
1100
0110
0011
0110
,
1100
0110
0011
0110
1100
1100
0011
0011
1100
0110
0011
0110
,
1100
0110
0011
0111
1100
0011
1100
0011
1100
1100
0011
0011
,
1100
1100
0011
1100
0011
1100
0011
0011
1100
1100
0011
0011
,
1100
1100
0011
1100
0011
0011
1100
1100
0011
0011
1100
0011
,
0101
1010
0101
1010
0101
1010
1110
0101
0101
1010
0110
1001
,
1101
0110
0101
1010
1100
1010
1101
0011
0011
1100
0101
1001
,
1110
0000
1001
0000
0110
0000
1001
0000
0111
0000
1001
0000
0111
0000
1000
0100
0010
0001
1000
0100
0010
0001
0100
0010
,
0001
1000
0100
0010
0100
1000
0001
0100
0010
0100
1000
0001
1110
0001
0010
0100
1000
0001
0010
0100
1000
0001
0010
0100
,
0010
0100
1000
0100
0010
0001
0010
0100
1000
0100
0010
0001
0010
0100
1000
0101
0000
0000
0000
0100
0000
1000
0000
0000
,
0000
0100
0000
0010
0000
0001
0010
0100
1000
0001
0000
0000
0000
0000
0000
0100
0000
0000
0000
1000
0000
0100
0000
0000
,
0000
0000
1000
0000
0000
0000
0100
0000
0000
0000
0000
0000
0100
0000
0010
0000
0001
0000
0010
0000
0000
0000
0010
0000
0100
0000
0001
0000
0000
0000
1011
0000
0000
0100
0000
0000
0010
0000
0000
0100
0000
0000
1000
0000
0000
0001
0000
0000
,
0100
1011
0100
0010
0100
0010
0001
1000
0001
1110
0001
0100
0001
0100
0010
0100
,
1000
0111
1000
0100
1000
0010
0100
0001
0010
1101
0010
0001
0010
0100
0010
1000
,
0001
1110
0001
0100
0001
0100
0010
0001
1000
0111
1000
0111
1000
0111
1000
0111
,
1000
0000
0000
0110
0000
0000
1000
0000
0000
0011
0000
0000
1000
0000
0000
0010
0000
0000
1001
0000
0000
0110
0000
0000
0000
0000
0000
0000
0000
0000
0000
0000
0210
0000
0000
0000
0001
0000
0000
0000
2310
0000
0000
0000
0001
0000
0000
0000
,
0100
0010
3201
0010
0321
1000
0100
1000
0132
1000
0123
0001
,
1230
0001
2310
0001
3210
1000
0001
1000
2310
0100
3012
1000
,
0100
0010
2103
0010
3102
1000
0010
0100
1023
0001
1230
0001
,
2310
0100
3012
0100
1023
0100
0001
1000
0231
0010
2301
0010
,
0100
0010
3102
0010
2103
0001
0010
0001
3210
1000
0312
1000
,
0213
0001
2310
0001
3210
1000
0001
1000
0321
1000
0132
0010
,
1000
0100
1023
0100
1032
0010
0100
1000
0123
0001
1230
0010
,
2301
0000
0100
0000
3012
0000
0100
0000
1013
0100
0001
1000
0010
0100
1000
0001
0010
0100
0001
1000
0010
0100
0012
0000
,
0100
1000
0123
0001
1200
0001
1000
0001
2331
0100
0012
0100
,
3210
1000
1023
0001
2031
0010
0001
0010
3321
1000
0132
1000
,
0010
0100
1023
0001
1230
0001
0010
1000
2310
0001
0210
0001
,
3012
1000
1320
0100
2103
0001
0100
0001
3231
1000
1322
0100
,
1000
0100
1233
0001
2321
0100
0001
0100
3231
0010
1321
0100
,
0231
1000
0301
0010
1202
0010
1000
1010
0010
1313
0001
1220
,
0001
0000
1000
0000
2002
0000
3333
0000
2012
0000
0100
0000
0010
0000
3103
0000
0011
0000
1000
0000
0110
0001
1000
0010
,
0100
0000
0001
0000
1000
0000
0010
0000
0100
0000
1000
0000
0001
0000
0010
0000
0100
0000
2002
0000
0000
0000
0000
0000
0000
0000
0000
0000
0000
0000
0000
0000
0000
3003
0000
0000
0000
0000
0000
0000
0000
0000
0000
0000
0000
0000
0000
0000
;
